<?xml version="1.0" standalone="no"?>
<!DOCTYPE svg PUBLIC "-//W3C//DTD SVG 1.1//EN" "http://www.w3.org/Graphics/SVG/1.1/DTD/svg11.dtd">
<svg xmlns="http://www.w3.org/2000/svg">
<defs >
<font id="GFSDidot" horiz-adv-x="457" ><font-face
    font-family="GFS Didot"
    units-per-em="1000"
    panose-1="2 0 5 0 0 0 0 2 0 3"
    ascent="947"
    descent="-277"
    alphabetic="0" />
<glyph unicode=" " glyph-name="space" horiz-adv-x="352" />
<glyph unicode="!" glyph-name="exclam" horiz-adv-x="294" d="M84 570L80 621Q80 651 98 678T147 706T196 679T214 621Q214 618 210 570L153 184H139L84 570ZM171 111T190 93T209 48T191 3T146 -16T100 2T81 47T100 92T145 111Z" />
<glyph unicode="&quot;" glyph-name="quotedbl" horiz-adv-x="425" d="M349 668L315 464H299L264 668Q262 684 275 699T307 715T338 700T349 668ZM160 668L125 464H109L75 668Q72 684 86 699T118 715T150 700T160 668Z" />
<glyph unicode="#" glyph-name="numbersign" horiz-adv-x="521" d="M514 471V423H393L369 270H484V222H361L327 0H279L315 222H165L129 0H82L117 222H5V270H124L148 423H34V471H155L190 689H237L203 471H355L388 689H434L401 471H514ZM323 270L347 423H196L171 270H323Z" />
<glyph unicode="$" glyph-name="dollar" horiz-adv-x="513" d="M276 650H280Q307 650 344 642T391 634T406 648H432V483H404Q399 547 368 577T276 611V369Q481 346 481 200Q481 93 395 36Q345 2 276 -8V-113H239V-12Q229 -13 209 -13Q142 -13 58 18L59 166H87Q93
91 130 60Q180 22 216 14Q239 9 239 26V293Q50 318 50 457Q50 555 125 606Q176 641 239 648V707H276V650ZM239 375V610Q125 600 127 490Q128 447 158 418T239 375ZM276 288V29Q323 37 356 60Q403 93 405 152Q405 212 361 251Q329 277 276 288Z" />
<glyph unicode="%" glyph-name="percent" horiz-adv-x="895" d="M238 679Q288 679 354 643V644Q410 612 454 612Q562 612 632 710H693L248 -48H179L554 591Q517 566 453 566Q417 566 395 574Q404 547 404 514Q404 418 342 356T207 294T88 337T41 465T101 614T238
679ZM262 342T301 390T340 500T314 597T235 633T144 582T105 468T130 374T209 342ZM484 239T544 304T684 369T804 320T846 204Q846 107 784 45T649 -17T530 26T484 154ZM782 201Q782 251 756 286T677 322T586 271T547 157T573 63T652 31T743 80T782 201Z" />
<glyph unicode="&amp;" glyph-name="ampersand" horiz-adv-x="754" d="M435 376L531 374L718 381Q707 342 707 311Q656 320 571 324Q576 306 576 278Q576 200 498 114Q602 52 661 52Q681 52 723 72L728 48L644 -14Q636 -19 606 -19T518 6T435 55Q344 -19 249 -19T98
33T42 168Q42 294 192 374Q163 447 163 507T186 587L252 644Q277 667 318 667Q410 667 410 578Q410 480 271 384Q348 259 467 137Q515 196 515 242Q515 314 492 323Q482 327 404 333L435 376ZM255 417Q288 437 316 476T345 545T331 595T293 616Q230 616 230 531Q230
483 255 417ZM406 80Q324 172 283 224T206 340Q125 282 125 201Q125 135 173 85Q223 35 285 35T406 80Z" />
<glyph unicode="&apos;" glyph-name="quotesingle" horiz-adv-x="209" d="M27 677Q27 723 93 723Q133 723 157 700T181 638Q181 579 137 542Q106 515 72 515V534Q127 550 139 599Q144 613 139 630T121 651Q111 653 110 653T102 650Q84 642 65 642Q27 644 27 677Z" />
<glyph unicode="(" glyph-name="parenleft" horiz-adv-x="381" d="M349 -80L335 -96Q55 73 55 359Q55 494 128 605T339 793L349 775Q153 652 153 369Q153 218 186 128Q229 8 349 -80Z" />
<glyph unicode=")" glyph-name="parenright" horiz-adv-x="381" d="M326 331Q326 198 249 85T43 -96L34 -80Q229 48 229 327Q229 483 195 576Q148 703 34 775L47 793Q123 759 204 663Q326 517 326 331Z" />
<glyph unicode="*" glyph-name="asterisk" horiz-adv-x="401" d="M350 628T361 617T373 584T350 551Q347 549 328 545Q274 533 222 511Q264 491 305 481T350 469Q374 456 374 432Q374 420 367 412Q358 393 334 393Q323 393 312 398T273 432T210 488Q215 439 228
400T241 350T228 325T199 311Q158 313 158 357Q158 364 170 402T185 487Q151 464 120 433Q92 403 83 397T60 391Q22 391 22 430Q22 455 44 467Q54 473 91 481T172 510Q125 530 86 539T44 549Q21 563 21 584T33 616T60 627T85 621T120 586T185 531Q181 576 170 617Q158
653 158 667T170 694T198 708T226 695T238 668T226 618T211 532Q245 554 273 586T311 623T335 628Z" />
<glyph unicode="+" glyph-name="plus" horiz-adv-x="625" d="M575 299V231H346V0H279V231H50V299H279V527H346V299H575Z" />
<glyph unicode="," glyph-name="comma" horiz-adv-x="224" d="M124 0L90 -8Q73 -8 59 7T44 42T59 77T102 92T155 66T180 0T143 -83T57 -150L50 -140Q145 -81 145 -23Q145 0 124 0Z" />
<glyph unicode="-" glyph-name="hyphen" horiz-adv-x="389" d="M339 299V231H50V299H339Z" />
<glyph unicode="." glyph-name="period" horiz-adv-x="288" d="M171 114T189 96T208 51T190 6T145 -13T99 5T80 50T99 95T144 114Z" />
<glyph unicode="/" glyph-name="slash" horiz-adv-x="291" d="M251 711H304L41 -113H-13L251 711Z" />
<glyph unicode="0" glyph-name="zero" horiz-adv-x="573" d="M527 342Q527 224 466 115Q395 -14 287 -13Q164 -14 98 110Q46 208 46 341T100 577Q168 703 286 703Q419 703 479 582Q527 489 527 342ZM400 148Q430 245 430 351T405 544Q368 676 286 676Q207 676
168 542Q140 452 140 346T164 161T218 48T286 16Q360 14 400 148Z" />
<glyph unicode="1" glyph-name="one" horiz-adv-x="482" d="M404 31V0H130V31H223V560L121 381H88L256 689H310V31H404Z" />
<glyph unicode="2" glyph-name="two" horiz-adv-x="568" d="M493 185V0H80V16Q201 118 285 240Q391 391 391 516Q391 580 359 626T267 673Q225 673 188 647T151 581Q151 562 171 539T192 500T172 473T127 462T84 481T66 532Q66 608 137 659Q202 703 287 703T430
648T489 503T447 345T327 204L197 84H400Q466 84 464 185H493Z" />
<glyph unicode="3" glyph-name="three" horiz-adv-x="568" d="M449 323Q516 272 516 184T435 41T254 -13Q183 -13 125 21Q56 62 56 126Q56 157 73 180T114 203T156 189T175 160T162 121T149 86Q149 55 181 37T248 18Q330 18 374 74Q414 123 414 210T339 330Q286
352 183 351V385H200Q297 385 344 414Q403 452 403 545Q403 673 276 673Q242 673 215 655T188 603Q188 593 196 578T204 551T188 527T153 514Q97 516 97 584Q97 640 155 671T297 703T435 657T489 536T432 415Q380 370 305 369Q390 369 449 323Z" />
<glyph unicode="4" glyph-name="four" horiz-adv-x="545" d="M497 31V0H218V31H312V154H59Q59 193 261 643Q288 703 324 703Q373 703 373 660Q373 629 246 432T101 195H312V354L403 389V195H497V154H403V31H497Z" />
<glyph unicode="5" glyph-name="five" horiz-adv-x="570" d="M174 132L163 79Q163 50 190 33T249 16Q326 16 370 85Q405 144 405 222T374 348Q336 407 265 407T130 319H95L109 698L139 708Q207 674 295 674T431 710L448 689Q415 644 351 618T235 591T147 606L138
373Q156 410 200 428T291 447Q394 447 451 392T509 239T439 64T277 -13T133 17Q66 53 66 130Q66 154 84 170T130 187Q174 187 174 132Z" />
<glyph unicode="6" glyph-name="six" horiz-adv-x="585" d="M536 229Q536 118 465 53T279 -13T105 86Q57 167 57 308T123 564Q202 703 343 703Q399 703 446 674Q499 639 499 586Q499 515 426 515Q414 515 401 526T388 547T395 574T403 604Q403 632 383 653T334
674Q237 674 188 541Q152 442 154 327V302Q170 354 219 391T326 429Q418 429 477 374T536 229ZM427 200Q427 390 299 390Q238 390 199 326T160 196T187 81Q221 17 288 17T395 75Q427 125 427 200Z" />
<glyph unicode="7" glyph-name="seven" horiz-adv-x="471" d="M441 689V656L415 584Q415 584 404 554Q345 378 312 254Q312 254 288 141Q272 69 256 28T188 -13Q170 -13 160 0T149 29T175 108T238 255L371 554Q395 608 392 604H140Q102 604 91 588T80 528H52V689H441Z" />
<glyph unicode="8" glyph-name="eight" horiz-adv-x="568" d="M523 188Q523 85 448 33Q384 -13 281 -13T122 28Q58 74 58 168Q58 232 109 279Q156 320 220 330Q161 354 120 401T78 509Q78 597 141 651Q199 703 285 703T425 658Q486 610 486 533Q486 475 446 438T342
388Q523 327 523 188ZM420 547Q420 603 384 635T293 668T194 635T149 554Q149 493 207 453Q222 441 317 399Q420 451 420 547ZM388 54Q444 93 444 148T414 238Q389 264 339 285L250 320Q198 296 165 248T131 144T171 54T274 20T388 54Z" />
<glyph unicode="9" glyph-name="nine" horiz-adv-x="568" d="M475 604Q523 523 523 383T457 126Q378 -13 237 -13Q180 -13 133 16Q80 51 80 105Q80 175 153 175Q166 175 179 164T192 144T184 116T176 86Q176 58 197 37T245 16Q345 16 396 170Q428 266 436 406Q419
344 368 303T254 261Q165 261 107 316T49 460Q49 571 118 637T301 703T475 604ZM383 367Q421 428 421 493T389 615T290 673T185 620T148 489Q148 298 279 298Q341 298 383 367Z" />
<glyph unicode=":" glyph-name="colon" horiz-adv-x="291" d="M170 464T189 446T208 401T189 356T144 337T99 355T80 400T99 445T144 464ZM174 111T192 93T211 48T193 3T148 -16T102 2T83 47T102 92T147 111Z" />
<glyph unicode=";" glyph-name="semicolon" horiz-adv-x="309" d="M172 464T190 446T209 401T191 356T146 337T101 355T82 400T100 445T145 464ZM229 13Q229 -61 172 -115Q132 -154 91 -154V-130Q148 -112 174 -47Q182 -15 172 -2Q158 -16 138 -16T99 3T80 48T98
91T149 112T206 88T229 13Z" />
<glyph unicode="&lt;" glyph-name="less" horiz-adv-x="588" d="M559 -76V-143L28 245V300L559 687V621L80 272L559 -76Z" />
<glyph unicode="=" glyph-name="equalorig" horiz-adv-x="647" d="M591 400V339H56V400H591ZM591 198V137H56V198H591Z" />
<glyph unicode="&gt;" glyph-name="greater" horiz-adv-x="588" d="M563 300V245L33 -143V-76L512 272L33 621V687L563 300Z" />
<glyph unicode="?" glyph-name="question" horiz-adv-x="450" d="M300 366Q217 285 215 171H199Q195 252 195 258Q195 325 224 375Q230 388 276 457Q318 517 318 577Q318 673 227 673Q143 673 139 603Q139 593 147 578T155 551T145 528T111 515T70 523Q44 543
47 583Q48 626 94 661Q144 701 224 701T355 663T406 554Q406 466 300 366ZM234 111T253 93T272 48T253 3T207 -16T162 2T144 47T163 92T208 111Z" />
<glyph unicode="@" glyph-name="at" horiz-adv-x="788" d="M736 400Q736 293 663 212T509 131Q476 131 456 154T435 212Q404 174 379 155T315 136Q259 136 222 176T185 277Q185 360 249 429T396 498Q468 498 480 423H484L501 488H586L511 214Q507 202 507 189Q507
160 534 160Q581 160 633 231T686 397T610 560Q535 629 419 629Q283 629 195 544T107 328T198 112T425 28Q580 28 672 168H731Q688 83 602 32T420 -19Q268 -19 160 77T52 322T155 575T412 678Q542 678 635 603Q736 523 736 400ZM464 399Q464 425 451 448T412 472Q354
472 309 385Q272 312 272 247Q272 214 286 189T331 163Q390 163 430 257Q464 332 464 399Z" />
<glyph unicode="A" glyph-name="A" horiz-adv-x="748" d="M725 31V0H465V31H545L477 228H236L198 138Q180 92 180 71T186 40T249 31V0H31V31Q83 30 106 44T158 138L375 708H415L651 31H725ZM250 266H463L364 559L250 266Z" />
<glyph unicode="B" glyph-name="B" horiz-adv-x="714" d="M637 173Q635 0 400 0H52V31H146V658H52V689H402Q497 689 551 643T606 525T562 409T449 353Q515 352 570 312Q639 262 637 173ZM507 519Q507 658 384 658H237V365H368Q416 365 456 397Q507 439 507 519ZM474
57Q528 93 527 177T471 304Q430 335 369 335H237V31H377Q434 31 474 57Z" />
<glyph unicode="C" glyph-name="C" horiz-adv-x="608" d="M585 128L599 112Q546 38 486 11T339 -16Q211 -16 121 89Q31 196 32 351T122 605T339 704Q421 704 458 697T547 669V512H517Q510 600 470 639T342 675Q148 666 148 344Q148 202 198 111Q250 21 334 20T472
43T585 128Z" />
<glyph unicode="D" glyph-name="D" horiz-adv-x="754" d="M691 336Q691 196 599 95T385 -2Q203 4 44 0V31H138V658H44V689Q133 684 202 685T388 685Q529 683 610 590T691 336ZM538 127Q587 205 586 342T546 554Q499 649 388 658Q298 663 227 654V31Q295 25 329
25T386 27Q489 42 538 127Z" />
<glyph unicode="E" glyph-name="E" horiz-adv-x="698" d="M611 239H643L632 0H51V31H145V658H51V689H616L618 486H587Q580 573 539 613T405 656L234 658V368H356Q399 368 420 393Q443 425 443 486H474V209H443Q443 268 419 301T356 334H234V31L421 34Q449 34 488
49T547 83Q607 139 611 239Z" />
<glyph unicode="F" glyph-name="F" horiz-adv-x="646" d="M609 689L611 486H580Q573 573 533 613T398 656L227 658V368H349Q393 368 412 393Q435 425 435 486H467V209H435Q435 268 411 301T349 334H227V31H320V0H44V31H138V658H44V689H609Z" />
<glyph unicode="G" glyph-name="G" horiz-adv-x="695" d="M647 271V239H613V35Q592 29 554 17T509 2Q443 -14 360 -14Q235 -14 142 90Q54 196 55 350T145 607Q233 704 360 704Q446 704 495 692Q515 688 569 667V510H539Q532 597 491 637T365 673Q170 661 170 345Q170
202 221 113T357 22Q407 21 466 44Q518 62 523 80Q528 90 528 120V239H415V271H647Z" />
<glyph unicode="H" glyph-name="H" horiz-adv-x="758" d="M718 31V0H440V31H534V345H227V31H320V0H44V31H138V658H44V689H320V658H227V380H534V658H440V689H718V658H625V31H718Z" />
<glyph unicode="I" glyph-name="I" horiz-adv-x="380" d="M335 31V0H49V31H143V658H49V689H335V658H242V31H335Z" />
<glyph unicode="J" glyph-name="J" horiz-adv-x="316" d="M309 689V658H214V115Q214 -41 147 -127Q101 -186 17 -192Q-2 -193 -14 -179T-26 -145Q-26 -114 4 -106Q12 -104 35 -119T77 -131Q100 -128 110 -97Q116 -81 116 -15V658H22V689H309Z" />
<glyph unicode="K" glyph-name="K" horiz-adv-x="775" d="M747 31V0H451V31Q523 31 523 57Q523 72 513 89L344 377L215 230V31H308V0H31V31H124V658H31V689H310V658H217V288L486 586Q505 605 505 620T497 647T433 658V689H683V658Q618 658 593 641T515 565L415
453L626 87Q627 84 631 77L637 66Q652 41 669 35Q678 31 747 31Z" />
<glyph unicode="L" glyph-name="L" horiz-adv-x="645" d="M570 239H602L589 0H44V31H138V658H44V689H321V658H227V31L380 34Q407 34 447 49T506 83Q566 139 570 239Z" />
<glyph unicode="M" glyph-name="M" horiz-adv-x="911" d="M848 31V0H570V31H663V620L421 11L406 10L185 617V117Q185 66 210 41Q220 31 278 31V0H58V31Q114 31 124 40Q152 64 152 117V635Q149 658 122 658H66V689H263L447 169L657 689H848V658H755V31H848Z" />
<glyph unicode="N" glyph-name="N" horiz-adv-x="733" d="M708 689V658Q650 658 640 648Q614 622 614 571L616 -17H593L170 635V117Q170 65 195 41Q205 31 263 31V0H42V31Q98 31 108 40Q136 64 136 117V635Q133 658 106 658H50V689H250L581 174V571Q581 622 553
649Q542 658 487 658V689H708Z" />
<glyph unicode="O" glyph-name="O" horiz-adv-x="718" d="M581 607Q663 509 663 351T577 89T363 -14T142 91Q52 197 54 352T142 607T364 707T581 607ZM363 21Q456 21 504 110T552 346T510 578Q460 676 357 676T205 583Q165 504 165 347Q165 21 363 21Z" />
<glyph unicode="P" glyph-name="P" horiz-adv-x="605" d="M336 689Q459 689 522 635T585 489T500 345Q426 299 302 299H218V31H311V0H33V31H127V658H33V689H336ZM426 363Q483 406 481 492T442 618T324 658H218V326H304Q379 326 426 363Z" />
<glyph unicode="Q" glyph-name="Q" horiz-adv-x="722" d="M366 21Q462 21 509 110T556 347T513 579Q465 676 362 676T210 583Q170 504 170 347Q170 21 366 21ZM718 -84V-108Q700 -124 693 -129Q657 -152 623 -153T547 -129L452 -57Q392 -15 346 -12Q223 -1 140
103T57 347Q59 509 148 609Q232 706 367 706T584 608T665 340Q665 220 606 128T448 1Q528 1 580 -48T674 -97Q692 -97 718 -84Z" />
<glyph unicode="R" glyph-name="R" horiz-adv-x="658" d="M469 54L278 327H217L219 31H312V0H34V31H127V658H34V689H337Q458 689 521 641T584 513T528 383Q474 338 386 332L591 54Q607 34 662 29V-1Q589 2 431 -1L432 31H460Q474 34 474 41T469 54ZM304 356Q486
356 482 513Q478 658 325 658H219L217 356H304Z" />
<glyph unicode="S" glyph-name="S" horiz-adv-x="513" d="M491 220Q491 104 398 43Q318 -10 197 -10Q124 -10 34 24L35 183H65Q71 104 112 69Q131 53 168 42T235 32Q304 33 356 69Q407 106 409 168Q409 233 364 272T238 320Q25 346 25 498Q25 604 106 659Q175
707 274 707Q303 707 343 699T394 690T410 705H438V526H408Q401 600 364 633T252 665Q106 663 108 534Q110 419 268 403Q491 379 491 220Z" />
<glyph unicode="T" glyph-name="T" horiz-adv-x="668" d="M642 689L644 486H614Q608 570 569 610T432 656L386 658V31H480V0H202V31H295V658L250 656Q153 652 115 614T67 486H38L40 689H642Z" />
<glyph unicode="U" glyph-name="U" horiz-adv-x="747" d="M723 692V661Q664 661 654 651Q629 626 629 573V279Q629 119 574 52T373 -15Q255 -15 190 56T124 219V661H32V692H307V661H213V223Q213 15 402 15Q596 15 596 247V573Q596 628 570 652Q560 661 503 661V692H723Z" />
<glyph unicode="V" glyph-name="V" horiz-adv-x="719" d="M712 687V657Q660 658 641 645Q613 627 585 549L368 -21H328L93 657H18V687H277V657H197L381 129L545 549Q563 596 563 617T557 647Q553 657 494 657V687H712Z" />
<glyph unicode="W" glyph-name="W" horiz-adv-x="1010" d="M1020 707V676Q967 678 949 665T918 636T893 569L726 -1H686L502 544L291 -1H251L80 676H6V707H269V676H193L310 162L523 707H554L734 178L845 569Q862 628 862 645T852 669T795 676V707H1020Z" />
<glyph unicode="X" glyph-name="X" horiz-adv-x="744" d="M542 628Q542 658 471 658V689H705V658Q651 658 624 642T561 581L413 389L674 31H744V0H466V31H548L349 307L193 105Q170 77 170 65T176 47Q193 33 207 32Q210 31 242 31V0H3V31Q58 31 84 46T153 106L328
334L96 658H25V689H292V658H217L391 417L520 584Q542 609 542 628Z" />
<glyph unicode="Y" glyph-name="Y" horiz-adv-x="684" d="M666 689L667 652Q608 654 593 638Q572 619 543 557L398 276V30L494 31V-1L212 0V31L304 30V271L84 658H8V689H269V658H195L376 323L490 546Q520 598 520 625Q520 637 504 650Q496 658 446 656L447 689H666Z" />
<glyph unicode="Z" glyph-name="Z" horiz-adv-x="658" d="M595 239H627L614 0L35 -1L457 658L276 656Q171 655 137 616Q99 570 90 486H64L66 690L584 689L168 31L405 34Q432 34 472 49T531 83Q589 137 595 239Z" />
<glyph unicode="[" glyph-name="bracketleft" horiz-adv-x="347" d="M311 -108V-138H91V715H311V684H170V-108H311Z" />
<glyph unicode="\" glyph-name="backslash" horiz-adv-x="587" d="M136 702L496 0H438L79 702H136Z" />
<glyph unicode="]" glyph-name="bracketright" horiz-adv-x="347" d="M258 715V-138H38V-108H179V684H38V715H258Z" />
<glyph unicode="^" glyph-name="asciicircum" horiz-adv-x="499" d="M274 625L449 244H388L250 554L112 244H49L226 625H274Z" />
<glyph unicode="_" glyph-name="underscore" horiz-adv-x="483" d="M483 -73V-121H0V-73H483Z" />
<glyph unicode="`" glyph-name="grave" horiz-adv-x="323" d="M119 632L252 498H214L74 585Q35 609 35 630Q35 663 67 663Q88 663 119 632Z" />
<glyph unicode="a" glyph-name="a" horiz-adv-x="500" d="M480 28V0H320V82Q231 -12 152 -12Q99 -12 67 19Q32 50 32 107Q32 186 93 225Q139 253 222 268L320 285Q322 356 308 389Q288 436 239 436Q154 436 153 379Q153 369 164 356T176 341Q177 326 162 316T133
309Q83 309 84 364T153 448Q195 464 242 464Q321 464 360 420Q399 372 399 268V50Q399 40 406 34T422 28H480ZM320 122V252Q233 241 177 219Q151 209 134 182T117 123T139 69T193 46T260 66T320 122Z" />
<glyph unicode="b" glyph-name="b" horiz-adv-x="548" d="M150 703V383Q166 411 199 435Q254 481 332 481T458 420Q506 365 506 278Q506 168 427 80T238 -9Q166 -9 116 27L80 -9H67V640Q66 675 32 675H-15V703H150ZM336 46T377 101T419 236T387 363Q349 416 282
416Q230 416 187 380Q150 346 150 320V96Q150 78 187 60T273 42Q336 46 377 101Z" />
<glyph unicode="c" glyph-name="c" horiz-adv-x="432" d="M111 254Q111 146 164 93T292 40Q343 40 392 68L402 54Q342 -9 249 -9T92 48Q26 111 26 213T100 393Q177 468 284 464Q346 460 374 434T401 380T382 338T346 324T311 332T298 352T317 371Q335 382 332
394Q329 428 263 428Q218 428 171 389Q111 340 111 254Z" />
<glyph unicode="d" glyph-name="d" horiz-adv-x="605" d="M588 27V0H423L427 88Q409 51 367 23Q318 -13 254 -13Q154 -13 101 55T48 232T122 412T304 479Q346 474 382 459Q414 442 424 424V640Q423 675 388 675H341V703H506V51Q508 27 528 27H588ZM424 231V358Q413
392 373 417T281 442T188 400Q141 349 134 249Q128 172 171 112Q217 45 289 45T396 106Q424 155 424 231Z" />
<glyph unicode="e" glyph-name="e" horiz-adv-x="465" d="M431 232H113Q113 144 157 95Q202 42 289 42Q335 42 408 88L421 78Q350 -9 245 -9T80 54Q24 115 24 216T84 390T247 464Q331 464 382 408T433 269Q433 258 431 232ZM345 268Q345 340 319 386T239 432T150
389T114 270Q301 265 345 268Z" />
<glyph unicode="f" glyph-name="f" horiz-adv-x="323" d="M338 627Q339 575 289 575Q275 575 261 583T247 601T262 624Q272 632 269 645Q266 682 223 682Q185 682 185 638V539Q186 499 186 441H305V405H185V50Q188 27 208 27H266V0H22V27H80Q100 27 103 50V405H23V441H103V596Q103
703 223 703Q285 703 315 676Q336 656 338 627Z" />
<glyph unicode="g" glyph-name="g" horiz-adv-x="526" d="M353 464H514L494 411L379 421Q426 377 427 320Q429 275 403 232T336 168Q284 139 233 139Q217 139 205 143L177 119Q160 102 160 88Q160 65 186 56Q198 52 234 50L390 38Q505 30 505 -73Q505 -152 434
-211T241 -270Q151 -270 91 -228Q31 -188 31 -129T72 -39Q99 -16 143 -10Q80 6 80 47Q80 78 116 111Q130 123 169 147Q139 148 98 185T56 278Q53 365 115 414T269 465Q322 465 353 464ZM289 174T317 206T345 295T319 385Q290 430 239 430T161 394T135 301T165 209T242
174ZM292 -31L188 -22Q161 -23 136 -47Q106 -72 106 -113Q106 -175 145 -206T256 -238T378 -202T428 -107Q428 -66 394 -51Q367 -38 292 -31Z" />
<glyph unicode="h" glyph-name="h" horiz-adv-x="602" d="M589 28V0H341V28H400Q420 28 423 51Q422 93 422 281Q422 342 390 379T313 417T223 373Q185 333 185 313V51Q188 28 208 28H268V0H19V28H78Q97 28 102 51L100 641Q99 675 66 675H18V703H184V378Q238 477
341 477Q508 477 505 295Q504 233 507 51Q510 28 530 28H589Z" />
<glyph unicode="i" glyph-name="i" horiz-adv-x="284" d="M166 666T181 651T197 614T181 575T143 559T106 575T89 611T105 649T144 666ZM189 456V50Q189 27 211 27H269V0H27V27H85Q107 27 107 50V406Q104 429 85 429H27V456H189Z" />
<glyph unicode="j" glyph-name="j" horiz-adv-x="241" d="M146 669T162 653T179 616T163 578T125 561T88 578T71 615T87 652T125 669ZM171 457V-21Q171 -109 132 -179Q83 -262 -10 -277L-11 -257Q-3 -259 25 -239T64 -201Q92 -148 91 -9L90 408Q85 430 65 430H7V457H171Z" />
<glyph unicode="k" glyph-name="k" horiz-adv-x="578" d="M322 27Q365 24 365 42Q365 51 358 58L181 229L180 49Q183 27 202 27H258V0H21V27H78Q97 27 100 49V639Q97 661 78 661H21V688H181V249L251 304L349 393Q359 400 359 410T343 421H286V447H524V421L478
419Q441 417 386 364L263 269Q273 254 324 203Q500 27 536 27H570V0H322V27Z" />
<glyph unicode="l" glyph-name="l" horiz-adv-x="285" d="M272 27V0H28V27H86Q109 27 109 50L108 627Q107 661 74 661H27V688H191V50Q191 27 214 27H272Z" />
<glyph unicode="m" glyph-name="m" horiz-adv-x="881" d="M851 27V0H608V27H667Q686 27 692 50V286Q692 339 668 373T601 408T519 375Q480 344 480 317L479 50Q484 27 502 27H560V0H318V27H375Q394 27 399 50V286Q399 337 376 371Q353 408 309 408T227 378T189
317V50Q192 27 211 27H269V0H26V27H84Q103 27 106 50V395Q105 429 71 429H25V457H189V381Q209 417 242 438Q286 468 340 468Q435 468 474 377Q533 468 633 468Q694 468 733 426T773 311L772 50Q774 27 793 27H851Z" />
<glyph unicode="n" glyph-name="n" horiz-adv-x="595" d="M572 27V0H328V27H387Q406 27 409 50V287Q409 345 379 377T302 410T215 379Q177 347 177 319V50Q180 27 200 27H258V0H14V27H72Q92 27 95 50V396Q94 430 61 430H14V457H178V430Q177 418 177 402V382Q185
401 219 430Q270 470 330 470Q491 470 491 299V50Q494 27 514 27H572Z" />
<glyph unicode="o" glyph-name="o" horiz-adv-x="536" d="M442 402Q506 339 506 236T435 62T249 -10Q158 -11 95 53Q35 118 35 224T102 399T284 467Q379 467 442 402ZM289 22Q352 22 383 75T415 212T372 366Q328 434 263 434Q126 434 126 259Q126 166 160 102Q203
22 289 22Z" />
<glyph unicode="p" glyph-name="p" horiz-adv-x="590" d="M546 267Q546 155 468 68T282 -14Q209 -13 176 11L173 -219Q178 -241 196 -241H255V-269H8V-241H67Q85 -241 91 -219V395Q88 429 56 429H9V457H174Q174 402 176 353Q192 386 217 410Q276 466 367 469Q450
469 498 412T546 267ZM416 88Q460 141 460 223T428 351Q393 404 323 404T176 306V93Q228 33 314 36Q377 38 416 88Z" />
<glyph unicode="q" glyph-name="q" horiz-adv-x="557" d="M554 -243V-271H307V-243H366Q386 -243 389 -220V86Q377 53 343 25Q298 -14 235 -14Q135 -14 83 54T31 229T99 406T274 473Q315 473 346 455T390 419L442 473H472V-220Q477 -243 495 -243H554ZM390 227V354Q380
388 342 412T254 437T168 396Q116 335 116 248T153 110Q199 43 272 43Q390 43 390 227Z" />
<glyph unicode="r" glyph-name="r" horiz-adv-x="407" d="M107 50V395Q106 429 73 429H27V457H191V365Q202 392 232 423Q277 468 327 468Q357 468 375 448T393 400Q393 345 343 340Q323 384 277 384Q244 384 217 351T190 276V50Q193 27 213 27H271V0H28V27H84Q102
27 107 50Z" />
<glyph unicode="s" glyph-name="s" horiz-adv-x="414" d="M391 141Q391 72 338 30T216 -13T92 13Q76 19 73 -5Q56 -2 50 -5V159H79V130Q79 98 117 61T206 24T287 45T318 104T266 165Q195 190 128 217Q45 251 45 324T103 434Q151 466 228 466Q260 466 325 445V464H352V331H323V352Q323
388 290 410T205 433T129 406Q110 382 114 353T143 310Q154 302 230 275T343 225Q391 192 391 141Z" />
<glyph unicode="t" glyph-name="t" horiz-adv-x="319" d="M129 541H180V418L305 420L303 374H180V116Q180 49 232 49Q255 49 289 67L296 56Q262 -13 192 -13Q96 -11 96 92V374L21 372V399Q28 401 40 404Q86 415 107 447T129 541Z" />
<glyph unicode="u" glyph-name="u" horiz-adv-x="603" d="M573 27V-1H413L412 80Q350 -13 235 -13Q144 -13 115 41Q98 72 98 155V396Q95 430 64 430H17V457H180V165Q180 102 201 75T285 47Q329 47 369 85Q409 125 409 160V396Q407 430 373 430H327V457H490V49Q490
38 498 33T515 27H573Z" />
<glyph unicode="v" glyph-name="v" horiz-adv-x="530" d="M527 457V430H501Q474 430 454 387L287 0H239L72 407Q63 430 38 430H6V457H238V430H191Q165 430 165 411Q165 407 167 401L287 89L404 387Q411 404 411 414Q411 430 394 430H344V457H527Z" />
<glyph unicode="w" glyph-name="w" horiz-adv-x="790" d="M771 457V429H745Q717 429 698 386L543 0H494L380 322L255 0H204L74 407Q68 429 40 429H8V457H239V429H193Q168 429 168 409Q168 403 169 400L255 93L393 468H426L543 93L648 386Q655 403 655 414Q655
429 638 429H588V457H771Z" />
<glyph unicode="x" glyph-name="x" horiz-adv-x="512" d="M280 27L310 26Q324 26 327 29Q333 35 333 45T327 65L247 185L158 73Q146 57 146 41Q146 27 163 27H191V0H19V27H56Q67 27 107 70L224 217L107 391Q82 429 51 429H30V456H241V429H213Q196 429 196 418T207
391L280 285L348 376Q364 403 364 416T349 429H321V456H486V429H463Q445 429 409 385L298 252L427 65Q456 27 470 27H502V0H280V27Z" />
<glyph unicode="y" glyph-name="y" horiz-adv-x="536" d="M69 407Q60 430 34 430H3V457H234V430H187Q161 430 161 411Q161 406 164 400L283 90L401 387Q407 402 407 414Q407 430 390 430H340V457H522V430H496Q468 430 450 387L283 1Q268 -47 252 -86Q212 -181
180 -210T131 -246T94 -252T54 -242T40 -207Q44 -172 88 -175Q99 -179 117 -182T144 -183T174 -159Q203 -125 213 -95Q230 -59 239 -22Q238 -14 233 1T224 35T69 407Z" />
<glyph unicode="z" glyph-name="z" horiz-adv-x="461" d="M436 141V0Q300 0 16 -3V19L311 419L143 420Q128 420 113 415T95 398Q88 371 81 326H53V457Q321 454 421 457V428L134 34L358 35Q378 35 390 58Q403 90 409 141H436Z" />
<glyph unicode="{" glyph-name="braceleft" horiz-adv-x="500" d="M356 -171Q263 -174 229 -143T194 -18V148Q194 204 179 229T115 268Q162 282 178 307T194 385V568Q194 654 236 686Q272 712 356 711Q307 699 288 670T269 583V401Q269 342 252 312T185 268Q237
255 253 222T269 125V-44Q269 -154 356 -171Z" />
<glyph unicode="|" glyph-name="bar" horiz-adv-x="209" d="M138 711V0H71V711H138Z" />
<glyph unicode="}" glyph-name="braceright" horiz-adv-x="500" d="M385 268Q337 255 322 230T307 148V-18Q307 -112 272 -143T145 -171Q231 -154 231 -44V125Q231 188 247 221T316 268Q267 281 247 315Q231 341 231 401V583Q231 639 213 669T145 711Q228 712
267 684T307 568V385Q307 334 321 309Q340 281 385 268Z" />
<glyph unicode="~" glyph-name="asciitilde" horiz-adv-x="629" d="M538 361L577 319Q520 202 429 202Q380 202 311 238T205 277Q134 278 88 181Q80 193 52 223Q73 275 114 309T200 344Q228 344 318 309T429 274Q497 274 538 361Z" />
<glyph unicode="&#xa0;" glyph-name="ch202" horiz-adv-x="250" />
<glyph unicode="&#xa1;" glyph-name="exclamdown" horiz-adv-x="294" d="M214 -168V-171Q214 -202 197 -229T148 -256T98 -229T80 -171L84 -120L139 266H153L210 -120Q212 -134 212 -146L214 -168ZM172 466T190 448T209 403T190 358T145 339T100 357T81 402T100
447T145 466Z" />
<glyph unicode="&#xa2;" glyph-name="cent" horiz-adv-x="418" d="M297 508Q386 494 386 456Q386 441 377 431T354 420Q326 420 315 450Q311 463 293 471L254 149H256Q303 148 352 181Q365 189 372 189Q384 189 384 179T375 160Q326 117 251 115L248 100L236 0Q204
-4 203 0L218 117Q145 127 99 181T52 315T110 454T251 512H264L266 521L276 606H309L297 508ZM223 158L262 483H252Q199 481 165 433Q132 383 133 316Q135 185 223 158Z" />
<glyph unicode="&#xa3;" glyph-name="sterling" horiz-adv-x="569" d="M87 345L144 347V450Q144 584 212 649Q274 705 356 705Q365 705 383 703Q494 692 497 625Q500 573 448 573Q436 570 421 580T406 604Q407 606 418 618T429 641T413 661T382 670T344 664T313
653Q288 639 266 596Q224 520 232 427V349Q320 349 404 351L405 304Q374 305 292 304H226Q223 196 130 68Q173 75 227 75T434 68Q476 66 506 100T532 141Q532 10 458 -10Q435 -16 407 -16T293 4T116 31Q104 5 80 -10T41 -14Q35 -10 35 6T48 36T97 67Q111 97 126
147T144 279V304L97 306Q78 307 51 307L53 347Q53 345 87 345Z" />
<glyph unicode="&#xa4;" glyph-name="currency" horiz-adv-x="499" d="M418 457Q465 401 465 326T418 194L464 149Q464 146 442 125T415 101L374 152Q319 112 249 112T124 152L83 101Q73 111 53 128T34 149L80 194Q34 249 34 325T80 457L34 502Q40 508 46 514Q86
546 83 549L124 499Q177 537 246 538T374 499L415 549Q414 548 439 523Q455 509 464 502L418 457ZM361 205Q409 254 409 323T362 441T250 491T139 442T92 324T139 205Q187 156 251 156T361 205Z" />
<glyph unicode="&#xa5;" glyph-name="yen" horiz-adv-x="656" d="M276 691T276 678T258 665T215 656T190 630T334 315H342Q459 524 505 643Q510 654 491 660T443 666Q429 666 429 678T443 691Q498 687 541 687T637 691Q652 691 652 678T637 665Q627 665 619 661Q596
653 570 632T389 315H521V280H372L361 261V211H519V177H363Q365 90 366 74Q368 31 442 24Q457 26 457 11Q457 0 442 0L317 3L207 0Q192 0 192 13Q192 24 211 24T253 38T276 76T278 177H143V211H279V261Q278 263 271 280H145V315H255Q172 491 95 620Q75 653 27 666Q11
666 11 678T26 691Q113 686 149 686T261 691Q276 691 276 678Z" />
<glyph unicode="&#xa6;" glyph-name="brokenbar" horiz-adv-x="238" d="M148 684V391H90V684H148ZM148 277V-16H90V277H148Z" />
<glyph unicode="&#xa7;" glyph-name="section" horiz-adv-x="521" d="M374 396Q445 327 445 262T406 161T307 130Q352 91 377 55T402 -28Q402 -89 353 -123Q309 -155 253 -155T155 -125Q109 -94 109 -41Q109 -19 127 -6T163 7T193 -2T205 -21T199 -43T192 -58Q192
-82 212 -107T263 -132T319 -111T345 -54Q345 0 275 55L145 153Q75 217 75 295Q75 357 114 392T215 421Q169 460 142 496T115 585T158 671T260 706T359 676Q405 645 405 592Q405 570 387 557T350 544T320 553T308 570T314 594T321 619Q321 643 300 663T249 683T196
663T172 608Q172 562 243 503L374 396ZM391 229Q391 272 317 336T199 401Q169 401 148 380T127 327Q127 283 198 218T314 153Q348 153 369 174T391 229Z" />
<glyph unicode="&#xa8;" glyph-name="dieresis" horiz-adv-x="489" d="M389 628T389 579T341 530T292 579T340 628ZM194 628T194 579T145 530T96 579T145 628Z" />
<glyph unicode="&#xa9;" glyph-name="copyright" horiz-adv-x="731" d="M511 691T615 587T719 337T616 87T365 -17T115 86T11 336T114 586T364 691ZM54 207T145 116T364 25T584 116T676 336T585 555T365 646T145 554T54 335ZM505 237L524 228Q507 185 463 159T366
132Q279 132 226 188Q174 244 174 334T229 480T377 536Q440 536 515 510V406H490Q488 510 384 510Q315 510 278 461T241 342T279 218T384 163Q469 163 505 237Z" />
<glyph unicode="&#xaa;" glyph-name="ordfeminine" horiz-adv-x="332" d="M283 272H200L199 320Q148 265 101 265Q70 265 51 283T32 340T67 402Q91 418 142 427L199 437Q200 476 191 500T152 524Q104 524 102 492Q102 486 108 478T115 466T107 456T91 451Q60 451
62 483T102 531Q126 540 153 540Q201 540 222 514T244 427V287H283V272ZM199 343V418Q154 414 116 399Q101 393 91 377T81 343T94 312T125 298T165 310T199 343Z" />
<glyph unicode="&#xab;" glyph-name="guillemotleft" horiz-adv-x="630" d="M382 198L551 22L531 2L275 199L535 399L551 377L382 198ZM145 198L314 22L294 2L38 199L298 399L314 377L145 198Z" />
<glyph unicode="&#xac;" glyph-name="logicalnot" horiz-adv-x="499" d="M466 304V50H407V255H33V304H466Z" />
<glyph unicode="&#xae;" glyph-name="registered" horiz-adv-x="731" d="M511 691T615 587T719 337T616 87T365 -17T115 86T11 336T114 586T364 691ZM54 207T145 116T364 25T584 116T676 336T585 555T365 646T145 554T54 335ZM549 170V154H523Q478 154 463 166T428
226Q399 299 382 318Q368 332 319 332H302V170H349V154H202V170H247L246 524H201V540H352Q418 540 454 526Q505 503 505 443Q505 400 471 373Q442 348 396 342V341Q444 335 481 241Q497 200 512 181Q526 170 549 170ZM449 439Q449 523 358 523H302V351H328Q449
351 449 439Z" />
<glyph unicode="&#xb0;" glyph-name="degree" horiz-adv-x="348" d="M268 602Q308 568 308 510T270 416T173 381T80 415Q40 449 40 507T78 602T172 638T268 602ZM207 416T229 442T252 509T230 577T174 603T118 578T96 510T118 442T173 416Z" />
<glyph unicode="&#xb1;" glyph-name="plusminus" horiz-adv-x="499" d="M442 287V238H279V84H220V238H58V287H220V435H279V287H442ZM442 49V0H58V49H442Z" />
<glyph unicode="&#xb2;" glyph-name="twosuperior" horiz-adv-x="289" d="M35 702Q33 737 63 768T145 798T227 772T257 699Q257 615 122 503H189Q207 504 220 521T232 563H260V443H42V462Q187 585 187 699Q187 731 175 751T142 771T104 759T87 732T99 704T113
680Q115 657 80 657Q63 657 50 671T35 702Z" />
<glyph unicode="&#xb3;" glyph-name="threesuperior" horiz-adv-x="323" d="M157 798Q202 798 232 777T262 716T235 653T169 630Q210 630 242 603T275 532T237 462T152 436T75 455T44 508Q44 523 53 535T78 548Q113 548 113 523Q113 514 108 507T102 489T114 471T146
463Q205 463 205 537Q205 616 108 616V644H116Q201 644 201 715Q201 742 189 756T155 771Q113 769 113 741Q113 735 118 727T123 712T114 698T93 691Q59 693 59 727T90 778T157 798Z" />
<glyph unicode="&#xb4;" glyph-name="acute" horiz-adv-x="408" d="M348 661Q348 640 335 627L202 491L181 496L278 677Q289 697 315 697Q348 697 348 661Z" />
<glyph unicode="&#xb5;" glyph-name="uni00B5" horiz-adv-x="570" d="M562 122Q565 112 565 87T547 27T492 -8T431 30Q412 58 407 103Q344 -8 260 -8Q207 -8 165 28T105 117Q101 88 101 44T123 -55Q133 -83 159 -126T185 -190Q185 -228 134 -228T67 -173Q59 -144
59 -89T68 55T78 185T72 287T66 387T77 449T129 472T169 427Q169 394 152 318T135 188Q135 46 229 46Q386 46 386 388Q386 472 424 472Q459 472 468 458T477 406Q477 260 424 137Q441 72 482 72Q529 72 562 122Z" />
<glyph unicode="&#xb6;" glyph-name="paragraph" horiz-adv-x="613" d="M564 677V645H488Q483 625 483 562L481 -27Q481 -45 486 -100H563V-127H192V-100H268Q274 -51 274 -27L275 337Q191 337 121 386Q38 442 38 530Q38 597 87 637Q138 683 229 679T406 674T564
677ZM275 374V640Q228 645 192 617Q146 581 146 510Q146 458 183 421T275 374ZM412 -27V640H344L343 -27Q343 -45 348 -100H406Q412 -51 412 -27Z" />
<glyph unicode="&#xb7;" glyph-name="middot" horiz-adv-x="250" d="M66 324T83 340T124 357T165 340T182 299T165 258T124 241T83 258T66 299Z" />
<glyph unicode="&#xb8;" glyph-name="cedilla" horiz-adv-x="323" d="M248 -68T271 -86T294 -142T258 -198T183 -218T92 -203L107 -172Q138 -182 165 -182Q221 -182 221 -139Q221 -104 182 -104Q165 -104 144 -111L137 -105L178 -10H210L186 -73Q198 -68 223 -68Z" />
<glyph unicode="&#xb9;" glyph-name="onesuperior" horiz-adv-x="288" d="M74 443V467H121V697L86 634H51L137 791H181V467H228V443H74Z" />
<glyph unicode="&#xba;" glyph-name="ordmasculine" horiz-adv-x="370" d="M234 538T271 501T308 404T267 302T165 260T70 297T34 397T73 498T173 538ZM182 279Q218 279 237 309T256 390T231 480T167 519Q87 519 87 417Q87 364 110 322T182 279Z" />
<glyph unicode="&#xbb;" glyph-name="guillemotright" horiz-adv-x="630" d="M367 399L627 199L370 2L351 22L520 198L351 377L367 399ZM130 399L390 199L133 2L114 22L283 198L114 377L130 399Z" />
<glyph unicode="&#xbc;" glyph-name="onequarter" horiz-adv-x="672" d="M109 0L113 -5H150L598 693L596 699H557L109 0ZM93 357V381H140V611L105 548H70L156 705H200V381H247V357H93ZM602 -1V23H555V71H602V100H555V200L495 177V100H403Q407 109 418 125L483
216Q546 316 546 327Q546 353 516 353T470 319L402 171Q361 85 361 71H495V23H450V-1H602Z" />
<glyph unicode="&#xbd;" glyph-name="onehalf" horiz-adv-x="666" d="M73 0L77 -5H114L562 693L560 699H521L73 0ZM93 357V381H140V611L105 548H70L156 705H200V381H247V357H93ZM371 259Q372 242 385 228T414 214T440 219T449 236T436 261T423 288T439 315T477
328T511 308T523 256Q523 142 378 19V0H596V120H568Q569 95 556 78T525 60H458Q593 172 593 256Q593 303 564 328T482 355T399 325T371 259Z" />
<glyph unicode="&#xbe;" glyph-name="threequarters" horiz-adv-x="694" d="M133 -5L131 0L579 699H618L620 693L172 -5H133ZM183 704Q228 704 258 683T288 622T261 559T195 536Q236 536 268 509T301 438T263 368T178 342T100 361T70 414Q70 429 79 441T104 454Q139
454 139 429Q139 420 134 413T128 395T140 377T172 369Q231 369 231 443Q231 522 134 522V550H142Q227 550 227 621Q227 648 215 662T181 677Q139 675 139 647Q139 641 144 633T149 618T140 604T119 597Q85 599 85 633T116 684T183 704ZM624 24V0H472V24H517V72H383Q383
86 409 141L493 322Q507 354 537 354T568 328Q568 317 505 217L440 126Q429 110 425 101H517V178L577 201V101H624V72H577V24H624Z" />
<glyph unicode="&#xbf;" glyph-name="questiondown" horiz-adv-x="450" d="M149 83Q233 164 236 280H252L254 193Q254 125 227 74Q219 61 175 -4T131 -127Q131 -222 222 -222Q307 -222 310 -154Q311 -143 303 -128T294 -106Q292 -72 342 -64Q361 -61 383 -76T403
-134T352 -214T223 -252T97 -215Q44 -174 44 -105Q44 -18 149 83ZM179 375T179 402T197 447T242 465T287 447T306 402T288 357T242 339T197 357Z" />
<glyph unicode="&#xc0;" glyph-name="Agrave" horiz-adv-x="748" d="M725 31V0H465V31H545L477 228H236L198 138Q180 92 180 71T186 40T249 31V0H31V31Q83 30 106 44T158 138L375 708H415L651 31H725ZM250 266H463L364 559L250 266ZM277 876L410 742H372L232 829Q193
853 193 874Q193 907 225 907Q246 907 277 876Z" />
<glyph unicode="&#xc1;" glyph-name="Aacute" horiz-adv-x="748" d="M725 31V0H465V31H545L477 228H236L198 138Q180 92 180 71T186 40T249 31V0H31V31Q83 30 106 44T158 138L375 708H415L651 31H725ZM250 266H463L364 559L250 266ZM553 908Q553 887 540 874L407
738L386 743L483 924Q494 944 520 944Q553 944 553 908Z" />
<glyph unicode="&#xc2;" glyph-name="Acircumflex" horiz-adv-x="748" d="M725 31V0H465V31H545L477 228H236L198 138Q180 92 180 71T186 40T249 31V0H31V31Q83 30 106 44T158 138L375 708H415L651 31H725ZM250 266H463L364 559L250 266ZM430 905L552 741H518L399
842L282 741H247L369 905H430Z" />
<glyph unicode="&#xc3;" glyph-name="Atilde" horiz-adv-x="748" d="M725 31V0H465V31H545L477 228H236L198 138Q180 92 180 71T186 40T249 31V0H31V31Q83 30 106 44T158 138L375 708H415L651 31H725ZM250 266H463L364 559L250 266ZM520 842H548Q548 803 517 772T452
740T370 762T308 784Q274 784 257 740H229Q246 836 335 836Q355 836 407 813Q452 791 470 792T499 805T520 842Z" />
<glyph unicode="&#xc4;" glyph-name="Adieresis" horiz-adv-x="748" d="M725 31V0H465V31H545L477 228H236L198 138Q180 92 180 71T186 40T249 31V0H31V31Q83 30 106 44T158 138L375 708H415L651 31H725ZM250 266H463L364 559L250 266ZM542 838T542 789T494 740T445
789T493 838ZM347 838T347 789T298 740T249 789T298 838Z" />
<glyph unicode="&#xc5;" glyph-name="Aring" horiz-adv-x="748" d="M489 857T489 817T460 748T391 719T322 748T293 817T321 885T390 914T460 886ZM725 31V0H465V31H545L477 228H235L199 138Q179 90 179 70T185 40T249 31V0H31V31Q83 30 106 44T159 138L375 708H415L650
31H725ZM418 755T434 772T450 817T435 863T392 880T348 863T331 818T347 772T391 755ZM250 266H463L363 559L250 266Z" />
<glyph unicode="&#xc6;" glyph-name="AE" horiz-adv-x="1085" d="M1019 239H1051L1040 0H459V31H553V228H299L220 124Q180 72 180 54Q180 31 203 31H242V0H24V31Q64 36 101 48Q119 59 168 125L553 658H459V689H1024L1026 486H995Q988 573 948 613T813 656L642
658V368H764Q850 368 850 486H882V209H850Q850 268 826 301T764 334H642V31L829 34Q857 34 896 49T955 83Q1014 138 1019 239ZM323 266H553V587L323 266Z" />
<glyph unicode="&#xc7;" glyph-name="Ccedilla" horiz-adv-x="693" d="M418 -68T441 -86T464 -142T428 -198T353 -218T262 -203L276 -172Q309 -182 335 -182Q391 -182 391 -139Q391 -104 352 -104Q335 -104 314 -111L307 -105L345 -15Q224 -4 142 99T60 354T152
606Q237 703 367 703Q452 703 511 690Q541 681 593 662Q575 580 575 515H545V585Q545 603 522 626T475 657Q416 677 372 675Q177 662 177 344Q177 202 226 113T360 21T499 43T613 128L625 114L597 68L552 34Q483 -13 377 -16L356 -73Q368 -68 393 -68Z" />
<glyph unicode="&#xc8;" glyph-name="Egrave" horiz-adv-x="698" d="M611 239H643L632 0H51V31H145V658H51V689H616L618 486H587Q580 573 539 613T405 656L234 658V368H356Q399 368 420 393Q443 425 443 486H474V209H443Q443 268 419 301T356 334H234V31L421 34Q449
34 488 49T547 83Q607 139 611 239ZM244 877L377 743H339L199 830Q160 854 160 875Q160 908 192 908Q213 908 244 877Z" />
<glyph unicode="&#xc9;" glyph-name="Eacute" horiz-adv-x="698" d="M611 239H643L632 0H51V31H145V658H51V689H616L618 486H587Q580 573 540 613T405 656L234 658V368H356Q400 368 419 393Q442 425 442 486H474V209H442Q442 268 418 301T356 334H234V31L421 34Q449
34 488 49T547 83Q606 138 611 239ZM487 911Q487 890 474 878L342 742L321 746L417 927Q427 946 454 946Q487 946 487 911Z" />
<glyph unicode="&#xca;" glyph-name="Ecircumflex" horiz-adv-x="698" d="M611 239H643L632 0H51V31H145V658H51V689H616L618 486H587Q580 573 539 613T405 656L234 658V368H356Q399 368 420 393Q443 425 443 486H474V209H443Q443 268 419 301T356 334H234V31L421
34Q449 34 488 49T547 83Q607 139 611 239ZM349 905L471 741H437L318 842L201 741H166L288 905H349Z" />
<glyph unicode="&#xcb;" glyph-name="Edieresis" horiz-adv-x="698" d="M611 239H643L632 0H51V31H145V658H51V689H616L618 486H587Q580 573 539 613T405 656L234 658V368H356Q399 368 420 393Q443 425 443 486H474V209H443Q443 268 419 301T356 334H234V31L421
34Q449 34 488 49T547 83Q607 139 611 239ZM496 835T496 786T448 737T399 786T447 835ZM301 835T301 786T252 737T203 786T252 835Z" />
<glyph unicode="&#xcc;" glyph-name="Igrave" horiz-adv-x="380" d="M335 31V0H49V31H143V658H49V689H335V658H242V31H335ZM85 873L218 739H180L40 826Q1 850 1 871Q1 904 33 904Q54 904 85 873Z" />
<glyph unicode="&#xcd;" glyph-name="Iacute" horiz-adv-x="380" d="M335 31V0H49V31H143V658H49V689H335V658H242V31H335ZM351 911Q351 890 338 877L205 741L184 746L281 927Q292 947 318 947Q351 947 351 911Z" />
<glyph unicode="&#xce;" glyph-name="Icircumflex" horiz-adv-x="380" d="M335 31V0H49V31H143V658H49V689H335V658H242V31H335ZM220 911L342 747H308L189 848L72 747H37L159 911H220Z" />
<glyph unicode="&#xcf;" glyph-name="Idieresis" horiz-adv-x="380" d="M335 31V0H49V31H143V658H49V689H335V658H242V31H335ZM333 835T333 786T285 737T236 786T284 835ZM138 835T138 786T89 737T40 786T89 835Z" />
<glyph unicode="&#xd0;" glyph-name="Eth" horiz-adv-x="709" d="M691 336Q691 196 599 95T385 -2Q203 4 44 0V31H138V327H46V361H138V658H44V689Q133 684 202 685T388 685Q529 683 610 590T691 336ZM538 127Q587 205 586 342T546 554Q499 649 388 658Q298 663
227 654V361H376V327H227V31Q295 25 329 25T386 27Q489 42 538 127Z" />
<glyph unicode="&#xd1;" glyph-name="Ntilde" horiz-adv-x="733" d="M708 689V658Q650 658 640 648Q614 622 614 571L616 -17H593L170 635V117Q170 65 195 41Q205 31 263 31V0H42V31Q98 31 108 40Q136 64 136 117V635Q133 658 106 658H50V689H250L581 174V571Q581
622 553 649Q542 658 487 658V689H708ZM544 849L547 846Q538 806 509 773T445 740T359 764T292 788Q249 788 233 740H211L208 743Q214 785 244 817T308 849T393 825T463 801Q502 801 522 849H544Z" />
<glyph unicode="&#xd2;" glyph-name="Ograve" horiz-adv-x="718" d="M581 607Q663 509 663 351T577 89T363 -14T142 91Q52 197 54 352T142 607T364 707T581 607ZM363 21Q456 21 504 110T552 346T510 578Q460 676 357 676T205 583Q165 504 165 347Q165 21 363 21ZM260
877L393 743H355L215 830Q176 854 176 875Q176 908 208 908Q229 908 260 877Z" />
<glyph unicode="&#xd3;" glyph-name="Oacute" horiz-adv-x="718" d="M581 607Q663 509 663 351T577 89T363 -14T142 91Q52 197 54 352T142 607T364 707T581 607ZM363 21Q456 21 504 110T552 346T510 578Q460 676 357 676T205 583Q165 504 165 347Q165 21 363 21ZM513
907Q513 886 500 873L367 737L346 742L443 923Q454 943 480 943Q513 943 513 907Z" />
<glyph unicode="&#xd4;" glyph-name="Ocircumflex" horiz-adv-x="718" d="M581 607Q663 509 663 351T577 89T363 -14T142 91Q52 197 54 352T142 607T364 707T581 607ZM363 21Q456 21 504 110T552 346T510 578Q460 676 357 676T205 583Q165 504 165 347Q165 21
363 21ZM392 911L514 747H480L361 848L244 747H209L331 911H392Z" />
<glyph unicode="&#xd5;" glyph-name="Otilde" horiz-adv-x="718" d="M581 607Q663 509 663 351T577 89T363 -14T142 91Q52 197 54 352T142 607T364 707T581 607ZM363 21Q456 21 504 110T552 346T510 578Q460 676 357 676T205 583Q165 504 165 347Q165 21 363 21ZM483
843H511Q511 804 480 773T415 741T333 763T271 785Q237 785 220 741H192Q208 837 298 837Q318 837 370 814Q415 792 433 794T462 807T483 843Z" />
<glyph unicode="&#xd6;" glyph-name="Odieresis" horiz-adv-x="718" d="M522 793Q522 746 473 746T423 793Q423 842 472 842T522 793ZM279 842Q327 842 327 794T278 746T229 793Q229 815 243 828T279 842ZM581 605Q663 507 663 349T577 87T361 -16T141 89Q52 197
53 351T143 606Q228 705 364 705T581 605ZM361 18Q455 18 503 107T551 343T508 576Q458 674 355 674T205 580Q165 501 165 344Q165 18 361 18Z" />
<glyph unicode="&#xd7;" glyph-name="multiply" horiz-adv-x="499" d="M290 266L439 121L400 83L250 227L99 83L60 121L210 266L60 411L99 448L250 305L400 448L439 411L290 266Z" />
<glyph unicode="&#xd8;" glyph-name="Oslash" horiz-adv-x="727" d="M699 695L727 663L620 560Q670 468 670 329T584 87T364 -16T140 101L32 0L3 34L115 139Q60 230 60 344Q61 505 148 605T367 705Q514 705 596 596L699 695ZM184 204L532 536Q487 674 367 674Q260
674 212 580Q172 501 172 344Q172 262 184 204ZM559 340Q559 421 545 488L196 155Q240 18 369 18Q464 18 513 112Q559 195 559 340Z" />
<glyph unicode="&#xd9;" glyph-name="Ugrave" horiz-adv-x="747" d="M723 692V661Q664 661 654 651Q629 626 629 573V279Q629 119 574 52T373 -15Q255 -15 190 56T124 219V661H32V692H307V661H213V223Q213 15 402 15Q596 15 596 247V573Q596 628 570 652Q560 661
503 661V692H723ZM299 873L432 739H394L254 826Q215 850 215 871Q215 904 247 904Q268 904 299 873Z" />
<glyph unicode="&#xda;" glyph-name="Uacute" horiz-adv-x="747" d="M723 692V661Q664 661 654 651Q629 626 629 573V279Q629 119 574 52T373 -15Q255 -15 190 56T124 219V661H32V692H307V661H213V223Q213 15 402 15Q596 15 596 247V573Q596 628 570 652Q560 661
503 661V692H723ZM562 912Q562 891 549 878L416 742L395 747L492 928Q503 948 529 948Q562 948 562 912Z" />
<glyph unicode="&#xdb;" glyph-name="Ucircumflex" horiz-adv-x="747" d="M723 692V661Q664 661 654 651Q629 626 629 573V279Q629 119 574 52T373 -15Q255 -15 190 56T124 219V661H32V692H307V661H213V223Q213 15 402 15Q596 15 596 247V573Q596 628 570 652Q560
661 503 661V692H723ZM438 910L560 746H526L407 847L290 746H255L377 910H438Z" />
<glyph unicode="&#xdc;" glyph-name="Udieresis" horiz-adv-x="747" d="M723 692V661Q664 661 654 651Q629 626 629 573V279Q629 119 574 52T373 -15Q255 -15 190 56T124 219V661H32V692H307V661H213V223Q213 15 402 15Q596 15 596 247V573Q596 628 570 652Q560
661 503 661V692H723ZM555 832T555 783T507 734T458 783T506 832ZM360 832T360 783T311 734T262 783T311 832Z" />
<glyph unicode="&#xdd;" glyph-name="Yacute" horiz-adv-x="684" d="M674 689L675 652Q616 654 601 638Q580 619 551 557L406 276V30L502 31V-1L220 0V31L312 30V271L92 658H16V689H277V658H203L384 323L498 546Q528 598 528 625Q528 637 512 650Q504 658 454
656L455 689H674ZM541 910Q541 889 528 876L395 740L374 745L471 926Q482 946 508 946Q541 946 541 910Z" />
<glyph unicode="&#xde;" glyph-name="Thorn" horiz-adv-x="596" d="M561 418Q559 317 504 254Q483 232 399 174Q374 158 303 156L284 219Q296 203 332 203T400 214T443 243Q469 286 478 317Q479 326 484 371T461 461Q436 505 405 513Q350 524 340 524Q292 524
266 492Q252 480 231 456V31H325V0H39V31H132V656H39V686H325V656H231V491L294 553Q314 571 339 574T381 583Q387 581 394 581Q442 581 498 536Q561 483 561 418Z" />
<glyph unicode="&#xdf;" glyph-name="germandbls" horiz-adv-x="555" d="M179 512V1H17V28H75Q94 28 97 50V403H18V439H97V458Q96 484 97 503Q97 582 136 635Q187 703 305 703Q376 703 424 676Q482 641 488 574Q497 496 445 397Q426 406 384 418Q323 425 314 377Q308
344 356 316L430 276Q517 223 521 160Q530 77 460 22Q428 -4 378 -4T284 19Q267 24 265 1H241V164H271V135Q271 100 293 69Q320 30 371 30Q399 30 422 53T445 106Q445 160 399 194L309 245Q258 279 257 323Q254 363 274 397T329 446T432 458Q441 508 441 543Q441
604 399 642T303 678T214 645T179 512Z" />
<glyph unicode="&#xe0;" glyph-name="agrave" horiz-adv-x="500" d="M480 28V0H320V82Q231 -12 152 -12Q99 -12 67 19Q32 50 32 107Q32 186 93 225Q139 253 222 268L320 285Q322 356 308 389Q288 436 239 436Q154 436 153 379Q153 369 164 356T176 341Q177 326
162 316T133 309Q83 309 84 364T153 448Q195 464 242 464Q321 464 360 420Q399 372 399 268V50Q399 40 406 34T422 28H480ZM320 122V252Q233 241 177 219Q151 209 134 182T117 123T139 69T193 46T260 66T320 122ZM174 632L307 498H269L129 585Q90 609 90 630Q90
663 122 663Q143 663 174 632Z" />
<glyph unicode="&#xe1;" glyph-name="aacute" horiz-adv-x="500" d="M480 28V0H320V82Q231 -12 152 -12Q99 -12 67 19Q32 50 32 107Q32 186 93 225Q139 253 222 268L320 285Q322 356 308 389Q288 436 239 436Q154 436 153 379Q153 369 164 356T176 341Q177 326
162 316T133 309Q83 309 84 364T153 448Q195 464 242 464Q321 464 360 420Q399 372 399 268V50Q399 40 406 34T422 28H480ZM320 122V252Q233 241 177 219Q151 209 134 182T117 123T139 69T193 46T260 66T320 122ZM392 661Q392 640 379 627L246 491L225 496L322
677Q333 697 359 697Q392 697 392 661Z" />
<glyph unicode="&#xe2;" glyph-name="acircumflex" horiz-adv-x="500" d="M271 683L393 519H359L241 619L123 519H89L211 683H271ZM480 28V0H320V82Q231 -12 152 -12Q99 -12 67 19Q32 50 32 107Q32 186 93 225Q139 253 222 268L320 285Q322 356 308 389Q288 436
239 436Q154 436 153 379Q153 369 164 356T176 341Q177 326 162 316T133 309Q83 309 84 364T153 448Q195 464 242 464Q321 464 360 420Q399 372 399 268V50Q399 40 406 34T422 28H480ZM320 122V252Q233 241 177 219Q151 209 134 182T117 123T139 69T193 46T260
66T320 122Z" />
<glyph unicode="&#xe3;" glyph-name="atilde" horiz-adv-x="500" d="M480 28V0H320V82Q231 -12 152 -12Q99 -12 67 19Q32 50 32 107Q32 186 93 225Q139 253 222 268L320 285Q322 356 308 389Q288 436 239 436Q154 436 153 379Q153 369 164 356T176 341Q177 326
162 316T133 309Q83 309 84 364T153 448Q195 464 242 464Q321 464 360 420Q399 372 399 268V50Q399 40 406 34T422 28H480ZM320 122V252Q233 241 177 219Q151 209 134 182T117 123T139 69T193 46T260 66T320 122ZM372 628H400Q400 589 369 558T304 526T222 548T160
570Q126 570 109 526H81Q97 622 187 622Q207 622 259 599Q304 577 322 578T351 591T372 628Z" />
<glyph unicode="&#xe4;" glyph-name="adieresis" horiz-adv-x="500" d="M386 575Q386 526 336 526Q288 526 288 574T337 622T386 575ZM192 575Q192 526 143 526T93 575Q93 622 142 622T192 575ZM480 28V0H320V82Q231 -12 152 -12Q99 -12 67 19Q32 50 32 107Q32
186 93 225Q139 253 222 268L320 285Q322 356 308 389Q288 436 239 436Q154 436 153 379Q153 369 164 356T176 341Q177 326 162 316T133 309Q83 309 84 364T153 448Q195 464 242 464Q321 464 360 420Q399 372 399 268V50Q399 40 406 34T422 28H480ZM320 122V252Q233
241 177 219Q151 209 134 182T117 123T139 69T193 46T260 66T320 122Z" />
<glyph unicode="&#xe5;" glyph-name="aring" horiz-adv-x="500" d="M280 725T308 697T337 628T309 558T240 529T170 558T141 627T170 696T239 725ZM267 564T284 581T301 627T284 673T240 690T196 673T180 628T196 582T240 564ZM480 28V0H320V82Q231 -12 152 -12Q99
-12 67 19Q32 50 32 107Q32 186 93 225Q139 253 222 268L320 285Q322 356 308 389Q288 436 239 436Q154 436 153 379Q153 369 164 356T176 341Q177 326 162 316T133 309Q83 309 84 364T153 448Q195 464 242 464Q321 464 360 420Q399 372 399 268V50Q399 40 406
34T422 28H480ZM320 122V252Q233 241 177 219Q151 209 134 182T117 123T139 69T193 46T260 66T320 122Z" />
<glyph unicode="&#xe6;" glyph-name="ae" horiz-adv-x="755" d="M720 228H400Q400 137 445 86T578 34Q624 34 701 81L714 71Q631 -17 537 -17Q399 -17 342 89Q299 37 259 10T164 -17T71 14T33 102Q34 181 113 221Q163 244 268 256L322 263Q330 434 241 434Q157
434 156 379Q156 368 166 355T178 340Q182 326 166 317T131 308T99 322T87 361Q99 462 244 461Q308 459 346 432Q358 422 380 394Q401 424 445 444T537 464Q619 464 671 406T723 266Q723 246 720 228ZM402 268L642 266Q644 333 613 381Q585 430 541 430Q402 430
402 268ZM322 117V231Q216 219 192 211Q119 187 119 123Q119 43 206 43Q271 43 322 117Z" />
<glyph unicode="&#xe7;" glyph-name="ccedilla" horiz-adv-x="434" d="M181 -106L223 -8Q146 -2 92 48Q26 111 26 213T100 393Q177 468 284 464Q346 460 374 434T401 380T382 338T346 324T311 332T298 352T317 371Q335 382 332 394Q329 428 263 428Q218 428 171
389Q111 340 111 254Q111 146 164 93T292 40Q343 40 392 68L402 54Q345 -6 256 -9L230 -74Q242 -70 268 -70T317 -88T340 -143T304 -200T228 -220T137 -204L150 -174Q189 -185 211 -185Q268 -185 268 -140Q268 -105 228 -105Q209 -105 188 -112L181 -106Z" />
<glyph unicode="&#xe8;" glyph-name="egrave" horiz-adv-x="470" d="M141 632L275 498H237L97 585Q58 609 58 630Q58 663 90 663Q110 663 141 632ZM431 232H113Q113 144 157 95Q202 42 289 42Q335 42 408 88L421 78Q350 -9 245 -9T80 54Q24 115 24 216T84 390T247
464Q331 464 382 408T433 269Q433 258 431 232ZM345 268Q345 340 319 386T239 432T150 389T114 270Q301 265 345 268Z" />
<glyph unicode="&#xe9;" glyph-name="eacute" horiz-adv-x="470" d="M393 661Q393 640 381 627L247 491L227 496L324 677Q335 697 360 697Q393 697 393 661ZM431 232H113Q113 144 157 95Q202 42 289 42Q335 42 408 88L421 78Q350 -9 245 -9T80 54Q24 115 24 216T84
390T247 464Q331 464 382 408T433 269Q433 258 431 232ZM345 268Q345 340 319 386T239 432T150 389T114 270Q301 265 345 268Z" />
<glyph unicode="&#xea;" glyph-name="ecircumflex" horiz-adv-x="470" d="M276 694L398 530H364L245 630L128 530H93L215 694H276ZM431 232H113Q113 144 157 95Q202 42 289 42Q335 42 408 88L421 78Q350 -9 245 -9T80 54Q24 115 24 216T84 390T247 464Q331 464
382 408T433 269Q433 258 431 232ZM345 268Q345 340 319 386T239 432T150 389T114 270Q301 265 345 268Z" />
<glyph unicode="&#xeb;" glyph-name="edieresis" horiz-adv-x="470" d="M386 630T386 581T336 532Q288 532 288 581T336 630Q386 630 386 581ZM190 630T190 581T141 532T92 581T141 630ZM431 232H113Q113 144 157 95Q202 42 289 42Q335 42 408 88L421 78Q350 -9
245 -9T80 54Q24 115 24 216T84 390T247 464Q331 464 382 408T433 269Q433 258 431 232ZM345 268Q345 340 319 386T239 432T150 389T114 270Q301 265 345 268Z" />
<glyph unicode="&#xec;" glyph-name="igrave" horiz-adv-x="287" d="M43 633L178 499H139L0 586Q-39 610 -39 630Q-39 665 -7 665Q11 665 43 633ZM189 456V50Q192 27 211 27H269V0H27V27H85Q104 27 107 50V406Q104 429 85 429H27V456H189Z" />
<glyph unicode="&#xed;" glyph-name="iacute" horiz-adv-x="287" d="M279 661Q279 640 267 627L133 491L113 496L210 677Q221 697 246 697Q279 697 279 661ZM189 456V50Q192 27 211 27H269V0H27V27H85Q104 27 107 50V406Q104 429 85 429H27V456H189Z" />
<glyph unicode="&#xee;" glyph-name="icircumflex" horiz-adv-x="287" d="M170 689L292 526H258L139 626L21 526H-13L108 689H170ZM189 456V50Q192 27 211 27H269V0H27V27H85Q104 27 107 50V406Q104 429 85 429H27V456H189Z" />
<glyph unicode="&#xef;" glyph-name="idieresis" horiz-adv-x="287" d="M283 624T283 576T234 527T185 575T234 624ZM-11 624T38 624T87 576T38 527T-11 575ZM189 456V50Q192 27 211 27H269V0H27V27H85Q104 27 107 50V406Q104 429 85 429H27V456H189Z" />
<glyph unicode="&#xf0;" glyph-name="eth" horiz-adv-x="534" d="M503 238V235Q503 123 431 53T245 -19Q153 -21 92 43T31 214T97 390Q164 459 280 459Q336 459 381 437Q348 528 282 587L144 519L124 547Q228 597 256 612Q224 644 139 695L166 722Q235 697 312
641L446 706L465 676Q400 646 342 616Q502 474 503 238ZM381 68Q412 117 412 204T369 358T259 426Q122 426 122 251Q122 157 156 93Q200 13 284 13Q348 13 381 68Z" />
<glyph unicode="&#xf1;" glyph-name="ntilde" horiz-adv-x="595" d="M572 27V0H328V27H387Q406 27 409 50V287Q409 345 379 377T302 410T215 379Q177 347 177 319V50Q180 27 200 27H258V0H14V27H72Q92 27 95 50V396Q94 430 61 430H14V457H178V430Q177 418 177
402V382Q185 401 219 430Q270 470 330 470Q491 470 491 299V50Q494 27 514 27H572ZM430 660H458Q458 621 427 590T362 558T280 580T218 602Q184 602 167 558H139Q156 654 245 654Q265 654 317 631Q362 609 380 610T409 623T430 660Z" />
<glyph unicode="&#xf2;" glyph-name="ograve" horiz-adv-x="536" d="M442 402Q506 339 506 236T435 62T249 -10Q158 -11 95 53Q35 118 35 224T102 399T284 467Q379 467 442 402ZM289 22Q352 22 383 75T415 212T372 366Q328 434 263 434Q126 434 126 259Q126 166
160 102Q203 22 289 22ZM153 632L286 498H248L108 585Q69 609 69 630Q69 663 101 663Q122 663 153 632Z" />
<glyph unicode="&#xf3;" glyph-name="oacute" horiz-adv-x="536" d="M393 685Q393 664 379 650L248 514L225 518L322 699Q332 718 358 718Q393 718 393 685ZM442 402Q506 339 506 236T435 62T249 -10Q158 -11 95 53Q35 118 35 224T102 399T284 467Q379 467 442
402ZM289 22Q352 22 383 75T415 212T372 366Q328 434 263 434Q126 434 126 259Q126 166 160 102Q203 22 289 22Z" />
<glyph unicode="&#xf4;" glyph-name="ocircumflex" horiz-adv-x="536" d="M300 684L422 521H388L270 621L153 521H117L239 684H300ZM442 402Q506 339 506 236T435 62T249 -10Q158 -11 95 53Q35 118 35 224T102 399T284 467Q379 467 442 402ZM289 22Q352 22 383
75T415 212T372 366Q328 434 263 434Q126 434 126 259Q126 166 160 102Q203 22 289 22Z" />
<glyph unicode="&#xf5;" glyph-name="otilde" horiz-adv-x="536" d="M442 402Q506 339 506 236T435 62T249 -10Q158 -11 95 53Q35 118 35 224T102 399T284 467Q379 467 442 402ZM289 22Q352 22 383 75T415 212T372 366Q328 434 263 434Q126 434 126 259Q126 166
160 102Q203 22 289 22ZM392 647H420Q420 608 389 577T324 545T242 567T180 589Q146 589 129 545H101Q117 641 207 641Q227 641 279 618Q324 596 342 598T371 611T392 647Z" />
<glyph unicode="&#xf6;" glyph-name="odieresis" horiz-adv-x="536" d="M422 643T422 594T373 545T324 594T373 643ZM227 643T227 594T179 545Q129 545 129 594T179 643Q227 643 227 594ZM442 402Q506 339 506 236T435 62T249 -10Q158 -11 95 53Q35 118 35 224T102
399T284 467Q379 467 442 402ZM289 22Q352 22 383 75T415 212T372 366Q328 434 263 434Q126 434 126 259Q126 166 160 102Q203 22 289 22Z" />
<glyph unicode="&#xf7;" glyph-name="divide" horiz-adv-x="593" d="M355 466T355 443T338 404T297 388T258 404T241 443T258 482T297 500T337 483ZM542 283V228H49V283H542ZM319 123T337 106T355 66T338 27T297 10T258 27T241 66T258 106T297 123Z" />
<glyph unicode="&#xf8;" glyph-name="oslash" horiz-adv-x="534" d="M494 483L524 452L457 386Q506 327 506 245Q506 132 434 62T248 -10Q162 -12 103 45L39 -17L11 16L75 77Q34 139 34 219Q34 330 100 399Q168 468 283 468Q366 468 427 417L494 483ZM142 142L372
365Q329 435 262 435Q125 435 125 260Q125 198 142 142ZM384 77Q415 126 415 198T393 325L160 100Q204 22 287 22Q351 22 384 77Z" />
<glyph unicode="&#xf9;" glyph-name="ugrave" horiz-adv-x="589" d="M181 657L314 523H276L136 610Q97 634 97 656Q97 689 129 689Q149 689 181 657ZM573 27V-1H413L412 80Q350 -13 235 -13Q144 -13 115 41Q98 72 98 155V396Q95 430 64 430H17V457H180V165Q180
102 201 75T285 47Q329 47 369 85Q409 125 409 160V396Q407 430 373 430H327V457H490V49Q490 38 498 33T515 27H573Z" />
<glyph unicode="&#xfa;" glyph-name="uacute" horiz-adv-x="589" d="M399 661Q399 640 387 627L253 491L233 496L330 677Q341 697 366 697Q399 697 399 661ZM573 27V-1H413L412 80Q350 -13 235 -13Q144 -13 115 41Q98 72 98 155V396Q95 430 64 430H17V457H180V165Q180
102 201 75T285 47Q329 47 369 85Q409 125 409 160V396Q407 430 373 430H327V457H490V49Q490 38 498 33T515 27H573Z" />
<glyph unicode="&#xfb;" glyph-name="ucircumflex" horiz-adv-x="589" d="M311 690L431 526H398L280 627L162 526H128L250 690H311ZM573 27V-1H413L412 80Q350 -13 235 -13Q144 -13 115 41Q98 72 98 155V396Q95 430 64 430H17V457H180V165Q180 102 201 75T285
47Q329 47 369 85Q409 125 409 160V396Q407 430 373 430H327V457H490V49Q490 38 498 33T515 27H573Z" />
<glyph unicode="&#xfc;" glyph-name="udieresis" horiz-adv-x="589" d="M429 620T429 571T380 522T331 571T380 620ZM234 620T234 571T186 522Q136 522 136 571Q136 593 150 606T186 620Q234 620 234 571ZM573 27V-1H413L412 80Q350 -13 235 -13Q144 -13 115 41Q98
72 98 155V396Q95 430 64 430H17V457H180V165Q180 102 201 75T285 47Q329 47 369 85Q409 125 409 160V396Q407 430 373 430H327V457H490V49Q490 38 498 33T515 27H573Z" />
<glyph unicode="&#xfd;" glyph-name="yacute" horiz-adv-x="536" d="M69 407Q60 430 34 430H3V457H234V430H187Q161 430 161 411Q161 406 164 400L283 90L401 387Q407 402 407 414Q407 430 390 430H340V457H522V430H496Q468 430 450 387L283 1Q268 -47 252 -86Q212
-181 180 -210T131 -246T94 -252T54 -242T40 -207Q44 -172 88 -175Q99 -179 117 -182T144 -183T174 -159Q203 -125 213 -95Q230 -59 239 -22Q238 -14 233 1T224 35T69 407ZM455 661Q455 640 442 627L309 491L288 496L385 677Q396 697 422 697Q455 697 455 661Z"
/>
<glyph unicode="&#xfe;" glyph-name="thorn" horiz-adv-x="549" d="M540 260Q540 214 511 153T457 76L344 5Q318 -13 264 -13T172 13L171 -173Q171 -192 176 -247H252V-274H7V-247H84Q89 -192 89 -173V651Q52 643 10 640V667Q91 676 163 708L172 705V364H173L251
434Q276 459 349 459T481 403T540 260ZM309 38Q370 38 413 93T457 225T418 349T304 396Q217 396 177 320Q172 310 172 294V96Q221 38 309 38Z" />
<glyph unicode="&#xff;" glyph-name="ydieresis" horiz-adv-x="536" d="M69 407Q60 430 34 430H3V457H234V430H187Q161 430 161 411Q161 406 164 400L283 90L401 387Q407 402 407 414Q407 430 390 430H340V457H522V430H496Q468 430 450 387L283 1Q268 -47 252
-86Q212 -181 180 -210T131 -246T94 -252T54 -242T40 -207Q44 -172 88 -175Q99 -179 117 -182T144 -183T174 -159Q203 -125 213 -95Q230 -59 239 -22Q238 -14 233 1T224 35T69 407ZM418 622T418 573T370 524T321 573T369 622ZM223 622T223 573T174 524T125 573T174
622Z" />
<glyph unicode="&#x2013;" glyph-name="endash" horiz-adv-x="536" d="M536 261V210H0V261H536Z" />
<glyph unicode="&#x2014;" glyph-name="emdash" horiz-adv-x="1058" d="M1058 261V210H0V261H1058Z" />
<glyph unicode="&#x2018;" glyph-name="quoteleft" horiz-adv-x="347" d="M152 560L185 564Q239 556 239 513Q239 450 178 450Q138 450 117 481T95 552T133 640T213 706L222 684Q195 670 165 636Q136 601 136 581T152 560Z" />
<glyph unicode="&#x2019;" glyph-name="quoteright" horiz-adv-x="347" d="M170 706Q209 706 231 674T253 602T214 514Q178 467 135 450L124 472Q151 482 181 517T211 579Q211 595 196 595L162 592Q107 599 107 642Q107 706 170 706Z" />
<glyph unicode="&#x201a;" glyph-name="quotesinglbase" horiz-adv-x="278" d="M178 -6L145 -10Q123 -10 107 4T90 40Q90 104 150 104Q189 104 211 73T234 1T195 -88T116 -152L107 -130Q132 -120 161 -84T190 -27T178 -6Z" />
<glyph unicode="&#x201c;" glyph-name="quotedblleft" horiz-adv-x="463" d="M328 560L360 564Q416 556 416 513Q416 450 355 450Q315 450 293 481T271 553T309 641T389 706L399 684Q372 670 342 636T312 576Q312 560 328 560ZM84 560L117 564Q172 557 172 513Q172
450 111 450Q70 450 48 484Q28 513 28 553T66 641T146 706L155 684Q127 670 99 636T70 581T84 560Z" />
<glyph unicode="&#x201d;" glyph-name="quotedblright" horiz-adv-x="463" d="M363 594L345 592Q291 600 291 642Q291 706 352 706Q392 706 415 670Q434 642 434 603T397 515T317 450L308 472Q334 483 363 518T392 574T378 595Q370 595 363 594ZM172 670Q192 641
192 602T153 514T74 450L65 472Q88 482 120 518Q150 554 150 574T136 595Q144 595 103 592Q47 600 47 642Q47 706 109 706Q150 706 172 670Z" />
<glyph unicode="&#x201e;" glyph-name="quotedblbase" horiz-adv-x="562" d="M431 -6L398 -10Q376 -10 360 4T343 40Q343 104 404 104Q442 104 464 73T487 1T448 -88T369 -152L360 -130Q385 -120 414 -84T443 -27T431 -6ZM187 -6L154 -10Q132 -10 115 4T98 40Q98
104 162 104Q197 104 220 74T243 2T205 -87T127 -152L116 -130Q144 -116 173 -82T202 -27T187 -6Z" />
<glyph unicode="&#x2022;" glyph-name="bullet" horiz-adv-x="593" d="M365 505T415 455T465 337T416 219T296 169T177 218T128 336T178 455T296 505Z" />
<glyph unicode="&#x2039;" glyph-name="guilsinglleft" horiz-adv-x="331" d="M97 171L50 218V230Q60 242 96 276L152 329L219 399L225 400L243 388L244 382Q156 266 131 225Q168 163 244 66L243 60L225 48L219 49Q160 111 97 171Z" />
<glyph unicode="&#x203a;" glyph-name="guilsinglright" horiz-adv-x="331" d="M213 277L261 230V218L158 119L91 49L84 48L67 60L66 66Q153 181 179 225Q143 286 66 382L67 388L84 400L91 399Q150 337 213 277Z" />
</font>
</defs>
</svg>
